osu file format v14

[General]
AudioFilename: Everyday World.mp3
AudioLeadIn: 1500
PreviewTime: 55916
Countdown: 0
SampleSet: Soft
StackLeniency: 0.7
Mode: 0
LetterboxInBreaks: 0
WidescreenStoryboard: 0

[Editor]
Bookmarks: 26890,55527
DistanceSpacing: 1.1
BeatDivisor: 4
GridSize: 4
TimelineZoom: 0.9000016

[Metadata]
Title:Everyday World
TitleUnicode:エブリデイワールド
Artist:Yukinoshita Yukino (CV.Hayami Saori) & Yuigahama Yui (CV.Touyama Nao)
ArtistUnicode:雪ノ下雪乃(CV.早見沙織)&由比ヶ浜結衣(CV.東山奈央)
Creator:Del05
Version:Ky's Insane
Source:やはり俺の青春ラブコメはまちがっている。続
Tags:oregairu zoku Kyle_Y Kocari guineaQ ending ed yahari ore no seishun love come wa machigatteiru my teen romantic comedy snafu tv size
BeatmapID:695766
BeatmapSetID:310408

[Difficulty]
HPDrainRate:7
CircleSize:4
OverallDifficulty:8
ApproachRate:9
SliderMultiplier:1.8
SliderTickRate:2

[Events]
//Background and Video events
Video,0,"Ed.flv",0,0
0,0,"BG_4.jpg",0,0
//Break Periods
//Storyboard Layer 0 (Background)
//Storyboard Layer 1 (Fail)
//Storyboard Layer 2 (Pass)
//Storyboard Layer 3 (Foreground)
//Storyboard Sound Samples

[TimingPoints]
592,389.61038961039,4,2,1,50,1,0
16176,-133.333333333333,4,2,1,50,0,0
28643,-100,4,2,1,50,0,0
41111,-133.333333333333,4,2,1,40,0,0
47345,-133.333333333333,4,2,1,50,0,0
55916,-111.111111111111,4,2,1,50,0,0
56695,-83.3333333333333,4,2,1,80,0,1
67604,-100,4,2,1,50,0,0
69163,-100,4,2,1,50,0,1
84747,-100,4,2,1,50,0,0
88643,-100,4,2,1,45,0,0
88838,-100,4,2,1,35,0,0
89033,-100,4,2,1,30,0,0
89228,-100,4,2,1,25,0,0
89325,-100,4,2,1,20,0,0

[Colours]
Combo1 : 141,93,155
Combo2 : 9,166,217
Combo3 : 254,71,151
Combo4 : 239,169,229
Combo5 : 255,165,133

[HitObjects]
235,73,592,5,4,0:0:0:0:
126,67,786,1,2,0:1:0:0:
235,73,981,1,2,0:0:0:0:
186,151,1176,2,0,B|213:168|246:170|273:158,1,90,2|2,0:1|0:0,0:0:0:0:
372,96,1566,1,2,0:1:0:0:
368,212,1760,1,2,0:0:0:0:
468,152,1955,1,2,0:1:0:0:
268,164,2150,5,2,0:0:0:0:
231,302,2345,1,2,0:1:0:0:
262,168,2540,1,2,0:0:0:0:
123,202,2734,1,2,0:1:0:0:
255,170,2929,1,2,0:0:0:0:
371,258,3124,1,2,0:1:0:0:
248,173,3319,1,2,0:1:0:0:
239,30,3514,1,2,0:1:0:0:
239,178,3708,6,0,B|275:185|309:179|339:163,1,90,2|2,0:0|0:1,0:0:0:0:
327,21,4098,2,0,B|295:15|264:19|237:30,1,90,2|2,0:0|0:1,0:0:0:0:
128,120,4488,2,0,B|157:145|162:186|145:217,1,90,2|2,0:0|0:1,0:0:0:0:
76,292,4877,1,2,0:0:0:0:
72,180,5072,1,2,0:1:0:0:
208,256,5266,5,2,0:0:0:0:
268,164,5462,1,2,0:1:0:0:
177,167,5656,1,2,0:0:0:0:
225,244,5851,1,2,0:1:0:0:
222,88,6046,1,2,0:0:0:0:
134,247,6241,1,2,0:1:0:0:
315,240,6436,1,2,0:1:0:0:
164,160,6630,1,2,0:1:0:0:
332,248,6825,6,0,B|362:267|398:269|428:256,1,90,6|2,0:0|0:1,0:0:0:0:
496,148,7215,1,2,0:0:0:0:
411,69,7410,2,0,B|389:92|380:122|383:151,1,90,2|2,0:1|0:0,0:0:0:0:
368,352,7799,1,2,0:1:0:0:
278,214,7994,1,2,0:0:0:0:
176,344,8189,1,2,0:1:0:0:
176,344,8384,6,0,B|139:357|100:352|69:334,1,90,2|2,0:0|0:1,0:0:0:0:
128,216,8773,1,2,0:0:0:0:
268,120,8968,1,2,0:1:0:0:
436,136,9163,1,2,0:0:0:0:
364,256,9358,1,2,0:1:0:0:
336,241,9455,1,0,0:1:0:0:
305,235,9552,1,0,0:1:0:0:
274,237,9650,1,0,0:1:0:0:
245,249,9747,1,0,0:1:0:0:
220,269,9845,1,0,0:1:0:0:
192,284,9942,6,0,B|162:294|131:288|107:271,1,90,12|2,0:0|0:0,0:0:0:0:
40,124,10332,1,2,0:0:0:0:
169,103,10527,2,0,B|173:135|167:165|153:191,1,90,6|8,0:0|0:0,0:0:0:0:
44,97,10916,1,2,0:0:0:0:
212,105,11111,2,0,B|214:137|207:167|193:193,1,90,6|8,0:0|0:0,0:0:0:0:
50,70,11501,5,2,0:0:0:0:
258,109,11695,2,0,B|259:141|252:170|238:196,1,90,6|8,0:0|0:0,0:0:0:0:
57,43,12085,1,2,0:0:0:0:
303,110,12280,2,0,B|305:142|298:171|284:197,1,90,6|8,0:0|0:0,0:0:0:0:
62,22,12669,1,0,0:0:0:0:
347,115,12864,2,0,B|340:178|325:210|325:210|380:223|423:198,1,180,4|2,0:0|0:0,0:0:0:0:
496,95,13448,1,0,0:0:0:0:
408,192,13643,5,8,0:0:0:0:
242,284,13838,1,8,0:0:0:0:
430,304,14033,1,8,0:0:0:0:
289,179,14228,1,8,0:0:0:0:
328,363,14423,1,4,0:0:0:0:
224,84,16176,6,0,B|220:136|183:175|137:187,1,135.000005149842,6|2,0:0|0:0,0:1:0:0:
108,76,16760,1,0,0:0:0:0:
284,204,16955,2,0,B|300:240|288:280,1,67.5000025749208,0|0,0:0|0:1,0:1:0:0:
220,360,17345,1,2,0:0:0:0:
176,252,17540,1,0,0:0:0:0:
44,228,17734,6,0,L|56:304,1,67.5000025749208,2|0,0:0|0:0,0:0:0:0:
176,364,18124,1,2,0:0:0:0:
284,204,18319,1,0,0:0:0:0:
414,233,18514,2,0,B|404:284|366:321|320:333,1,135.000005149842,2|0,0:0|0:1,0:1:0:0:
216,200,19098,1,0,0:0:0:0:
53,258,19293,5,2,0:0:0:0:
179,82,19488,1,0,0:0:0:0:
96,156,19682,2,0,B|113:181|140:194|167:195,1,67.5,2|0,0:0|0:0,0:0:0:0:
264,176,20072,1,2,0:0:0:0:
299,59,20267,1,0,0:0:0:0:
396,132,20462,2,0,L|412:204,1,67.5000025749208,2|0,0:0|0:0,0:0:0:0:
340,296,20851,5,2,0:0:0:0:
176,295,21046,1,0,0:0:0:0:
258,153,21241,1,2,0:0:0:0:
257,342,21436,1,0,0:0:0:0:
339,200,21630,1,2,0:0:0:0:
175,200,21825,1,0,0:0:0:0:
340,296,22020,2,0,B|365:307|393:306|416:296,1,67.5000025749208,0|0,0:0|0:0,0:0:0:0:
384,176,22410,5,0,0:0:0:0:
488,136,22604,1,2,0:0:0:0:
318,271,22799,2,0,B|278:243|262:196|272:153,1,135.000005149842,2|2,0:0|0:0,0:0:0:0:
336,32,23384,1,0,0:0:0:0:
200,40,23579,2,0,B|176:35|153:41|135:53,1,67.5,2|0,0:0|0:0,0:0:0:0:
32,244,23968,5,0,0:0:0:0:
137,305,24163,1,0,0:0:0:0:
137,62,24358,1,0,0:0:0:0:
32,122,24553,1,0,0:0:0:0:
242,244,24747,1,0,0:0:0:0:
242,122,24942,1,0,0:0:0:0:
136,184,25137,1,0,0:0:0:0:
32,122,25332,1,0,0:0:0:0:
216,56,25527,6,0,B|239:48|263:52|282:63,1,67.5000025749208,2|0,0:0|0:0,0:0:0:0:
344,180,25916,1,2,0:0:0:0:
444,268,26111,2,0,B|468:251|477:223|472:196,1,67.5000025749208,0|2,0:0|0:0,0:0:0:0:
476,100,26501,1,0,0:0:0:0:
256,112,26695,1,2,0:0:0:0:
360,24,26890,1,0,0:0:0:0:
344,180,27085,6,0,B|326:201|303:214|279:220,1,67.5000025749208,0|2,0:0|0:1,0:0:0:0:
120,288,27475,1,2,0:1:0:0:
128,148,27669,1,2,0:1:0:0:
208,260,27864,1,2,0:1:0:0:
72,220,28059,1,2,0:1:0:0:
204,176,28254,1,12,0:0:0:0:
228,158,28351,1,0,0:0:0:0:
252,140,28448,1,8,0:0:0:0:
278,124,28546,1,8,0:0:0:0:
305,108,28643,6,0,L|341:190,1,90,4|0,0:0|0:0,0:0:0:0:
472,248,29033,1,2,0:0:0:0:
416,124,29228,1,0,0:0:0:0:
348,312,29423,2,0,B|321:337|285:344|252:336,1,90,2|0,0:0|0:0,0:0:0:0:
190,248,29812,1,2,0:0:0:0:
127,347,30007,1,0,0:0:0:0:
35,106,30202,6,0,B|66:115|90:134|106:159,1,90,2|2,0:1|0:1,0:0:0:0:
80,273,30592,2,0,B|49:265|24:246|9:222,1,90,2|2,0:1|0:1,0:0:0:0:
174,250,30981,2,0,B|224:225|241:163|212:116,1,135,2|0,0:0|0:0,0:0:0:0:
196,68,31371,1,8,0:0:0:0:
416,92,31760,6,0,B|411:60|393:34|369:18,1,90,2|0,0:0|0:0,0:0:0:0:
316,100,32150,1,2,0:0:0:0:
368,216,32345,1,0,0:0:0:0:
476,152,32540,2,0,B|500:193|490:240,1,90,2|0,0:0|0:0,0:0:0:0:
376,318,32929,2,0,B|344:313|314:319|288:333,1,90,2|2,0:0|0:0,0:0:0:0:
164,358,33318,5,2,0:0:0:0:
164,358,33514,1,2,0:1:0:0:
137,194,33708,1,2,0:1:0:0:
340,128,33903,1,2,0:1:0:0:
224,88,34098,1,2,0:0:0:0:
274,232,34293,1,0,0:0:0:0:
128,128,34488,2,0,L|58:70,1,90,8|0,0:0|0:0,0:0:0:0:
304,188,34877,6,0,L|376:248,1,90,2|0,0:0|0:0,0:0:0:0:
308,59,35267,2,0,B|297:24|266:2|233:-1,1,90,2|0,0:0|0:0,0:0:0:0:
124,220,35656,2,0,B|135:258|169:283|205:284,1,90,2|0,0:0|0:0,0:0:0:0:
435,350,36046,2,0,B|446:319|444:286|432:259,1,90,2|0,0:0|0:0,0:0:0:0:
308,148,36435,5,2,0:0:0:0:
336,52,36630,2,0,B|367:60|390:82|401:109,1,90,0|2,0:0|0:1,0:0:0:0:
324,164,37020,1,2,0:1:0:0:
268,248,37215,2,0,B|229:220|216:171|230:129,1,135,2|0,0:0|0:0,0:0:0:0:
273,70,37604,1,8,0:0:0:0:
160,64,37799,1,0,0:0:0:0:
31,133,37994,5,2,0:0:0:0:
176,64,38189,1,0,0:0:0:0:
68,8,38384,1,2,0:1:0:0:
169,209,38579,1,2,0:1:0:0:
40,280,38773,2,0,B|23:252|18:221|24:192,1,90,2|0,0:0|0:0,0:0:0:0:
169,209,39163,1,2,0:0:0:0:
116,344,39358,1,0,0:0:0:0:
169,209,39553,6,0,B|216:162|293:166|336:215,1,180,2|2,0:0|0:0,0:0:0:0:
428,320,40137,1,0,0:0:0:0:
252,288,40332,1,8,0:0:0:0:
288,96,40527,2,0,B|332:112|384:96,1,90,8|2,0:0|0:0,0:0:0:0:
480,24,40916,1,0,0:0:0:0:
188,28,41111,6,0,B|165:72|173:121|173:121|113:131|76:170,1,202.500007724762,4|2,0:0|0:1,0:1:0:0:
104,316,41890,2,0,B|133:288|168:272|205:268,1,101.250003862381,0|2,0:0|0:1,0:0:0:0:
248,196,42280,2,8,B|269:209|281:230|282:253,1,67.5000025749208,0|2,0:0|0:1,0:0:0:0:
120,137,42669,5,2,0:0:0:0:
257,68,42864,1,0,0:0:0:0:
311,179,43059,2,0,B|291:193|268:198|247:195,1,67.5000025749208,2|2,0:1|0:1,0:0:0:0:
88,208,43449,1,0,0:0:0:0:
183,286,43643,1,0,0:0:0:0:
172,120,43838,2,0,B|163:83|135:56|101:48,1,101.250003862381,2|2,0:1|0:2,0:1:0:0:
15,90,44228,6,0,B|12:120|32:160|32:160|88:132,1,135.000005149842,2|2,0:0|0:1,0:1:0:0:
264,104,44812,1,2,0:1:0:0:
348,256,45007,2,0,B|341:279|327:298|308:311,1,67.5000025749208,0|2,0:0|0:1,0:0:0:0:
124,152,45397,2,0,B|130:128|144:109|162:97,1,67.5000025749208,0|2,0:0|0:1,0:0:0:0:
280,56,45786,1,8,0:0:0:0:
253,251,45981,1,8,0:0:0:0:
253,251,46079,1,0,0:0:0:0:
253,251,46176,1,0,0:0:0:0:
295,87,46371,1,8,0:0:0:0:
88,204,46566,5,2,0:1:0:0:
253,251,46761,1,2,0:1:0:0:
295,87,46956,1,2,0:1:0:0:
135,40,47151,1,2,0:1:0:0:
232,212,47345,2,0,B|244:268|264:284|264:284|244:308|216:310,1,135.000005149842,4|0,0:0|0:0,0:1:0:0:
61,315,47929,5,0,0:0:0:0:
148,236,48124,1,2,0:0:0:0:
148,236,48319,1,2,0:0:0:0:
372,303,48514,2,0,B|401:274|420:239,1,67.5000025749208,4|2,0:0|0:0,0:0:0:0:
288,40,48903,5,4,0:0:0:0:
288,40,49098,1,2,0:0:0:0:
160,192,49293,1,2,0:0:0:0:
196,76,49488,2,0,B|209:115|245:140|283:140,1,101.250003862381,4|0,0:0|0:0,0:0:0:0:
338,148,49877,1,0,0:0:0:0:
477,131,50072,1,4,0:0:0:0:
411,242,50267,1,8,0:0:0:0:
393,262,50364,1,0,0:0:0:0:
376,283,50462,6,0,B|338:246|280:246|241:277,1,135.000005149842,4|8,0:0|0:0,0:0:0:0:
72,340,51046,1,0,0:0:0:0:
56,200,51241,1,2,0:0:0:0:
240,56,51436,1,2,0:0:0:0:
108,76,51630,1,8,0:0:0:0:
184,180,51825,1,0,0:0:0:0:
368,136,52020,1,2,0:0:0:0:
248,60,52215,1,0,0:0:0:0:
292,240,52410,5,8,0:0:0:0:
292,240,52604,1,0,0:0:0:0:
330,117,52799,1,2,0:0:0:0:
330,117,52994,1,2,0:0:0:0:
181,117,53189,1,8,0:0:0:0:
150,255,53384,1,0,0:0:0:0:
150,275,53481,1,0,0:0:0:0:
150,295,53579,6,0,B|165:335|199:360|237:366,1,101.250003862381,4|0,0:0|0:0,0:0:0:0:
288,358,53968,1,8,0:0:0:0:
414,169,54163,1,0,0:0:0:0:
292,240,54358,1,0,0:0:0:0:
431,327,54553,1,0,0:0:0:0:
431,327,54650,1,0,0:0:0:0:
431,327,54747,1,0,0:0:0:0:
414,169,54942,1,0,0:0:0:0:
414,169,55040,1,0,0:0:0:0:
414,169,55137,6,0,L|378:137,1,33.7500012874604,0|0,0:0|0:0,0:0:0:0:
364,56,55332,2,0,L|338:33,1,33.7500012874604,0|0,0:0|0:0,0:0:0:0:
280,113,55527,2,0,L|255:91,1,33.7500012874604,0|0,0:0|0:0,0:0:0:0:
204,183,55721,2,0,L|168:151,1,33.7500012874604,0|0,0:0|0:0,0:0:0:0:
76,148,55916,6,0,B|80:114|100:87|128:72,1,80.9999975280763,0|0,0:0|0:0,0:0:0:0:
204,183,56307,1,8,0:0:0:0:
210,214,56404,1,8,0:0:0:0:
218,246,56501,1,8,0:0:0:0:
225,278,56598,1,8,0:0:0:0:
230,309,56695,6,0,B|262:288|300:282|334:289,1,107.999996704102,4|0,0:0|0:0,0:0:0:0:
488,276,57085,1,8,0:0:0:0:
384,152,57280,1,0,0:0:0:0:
352,144,57377,1,0,0:0:0:0:
321,133,57475,2,0,B|325:82|296:36|253:16,1,107.999996704102,2|2,0:0|0:0,0:0:0:0:
204,120,57864,1,8,0:0:0:0:
68,148,58059,1,0,0:0:0:0:
108,272,58254,6,0,B|153:262|184:226|192:185,1,107.999996704102,2|0,0:0|0:0,0:0:0:0:
228,80,58643,1,8,0:0:0:0:
388,100,58838,1,0,0:0:0:0:
413,141,58936,1,0,0:0:0:0:
431,185,59033,2,0,B|387:188|350:210|327:242,1,107.999996704102,2|2,0:0|0:0,0:0:0:0:
225,350,59423,1,8,0:0:0:0:
188,172,59617,1,0,0:0:0:0:
107,231,59812,6,0,B|76:188|85:129|123:97,1,107.999996704102,2|0,0:0|0:0,0:0:0:0:
383,285,60202,1,8,0:0:0:0:
253,284,60397,1,0,0:0:0:0:
383,60,60592,1,2,0:0:0:0:
447,172,60786,1,2,0:0:0:0:
188,172,60981,1,8,0:0:0:0:
253,60,61176,1,0,0:0:0:0:
320,168,61371,6,0,B|323:210|349:244|383:260,1,107.999996704102,2|0,0:0|0:0,0:0:0:0:
460,132,61760,2,0,B|457:90|431:56|397:40,1,107.999996704102,8|0,0:0|0:0,0:0:0:0:
372,36,62053,1,0,0:0:0:0:
340,36,62150,1,2,0:0:0:0:
272,184,62344,1,2,0:0:0:0:
432,264,62540,2,0,B|468:242|483:199|472:161,1,107.999996704102,8|0,0:0|0:0,0:0:0:0:
431,108,62832,1,0,0:0:0:0:
431,108,62929,6,8,B|364:88|320:136,1,107.999996704102,4|0,0:0|0:0,0:0:0:0:
272,296,63319,1,8,0:0:0:0:
168,176,63514,1,0,0:0:0:0:
188,152,63611,1,0,0:0:0:0:
216,136,63708,2,0,B|259:122|283:79|276:37,1,107.999996704102,2|2,0:0|0:0,0:0:0:0:
180,44,64098,1,8,0:0:0:0:
344,160,64293,2,0,L|362:210,1,53.9999983520508,0|0,0:0|0:0,0:0:0:0:
408,304,64488,5,2,0:0:0:0:
241,275,64683,1,0,0:0:0:0:
476,168,64877,2,0,B|475:117|458:92|458:92|431:111|410:133,1,107.999996704102,8|0,0:0|0:0,0:0:0:0:
386,162,65169,1,0,0:0:0:0:
386,162,65267,1,2,0:0:0:0:
461,253,65462,1,2,0:0:0:0:
392,350,65656,2,0,B|348:329|282:355|282:355|228:329,1,161.999995056153,8|0,0:0|0:0,0:0:0:0:
210,316,66046,5,2,0:0:0:0:
193,172,66240,1,0,0:0:0:0:
83,274,66435,1,8,0:0:0:0:
338,215,66630,2,0,B|352:174|346:132|325:99,1,107.999996704102,0|2,0:0|0:0,0:0:0:0:
76,40,67020,2,0,B|63:76|66:113|82:144,1,107.999996704102,2|8,0:0|0:0,0:0:0:0:
304,264,67410,1,0,0:0:0:0:
208,328,67604,6,0,B|187:294|184:254|196:220,1,90,2|8,0:0|0:0,0:0:0:0:
304,264,67994,2,0,B|384:240|432:292,1,135,8|2,0:0|0:0,0:0:0:0:
456,304,68384,5,8,0:0:0:0:
459,276,68481,1,0,0:0:0:0:
463,248,68578,1,0,0:0:0:0:
467,220,68676,1,0,0:0:0:0:
444,172,68773,5,8,0:0:0:0:
432,144,68870,1,8,0:0:0:0:
420,116,68968,1,8,0:0:0:0:
408,88,69066,1,8,0:0:0:0:
396,60,69163,6,0,L|256:28,1,135,4|0,0:0|0:0,0:0:0:0:
200,44,69553,1,8,0:0:0:0:
152,240,69748,1,0,0:0:0:0:
112,144,69942,2,0,B|160:124|213:143|239:183,1,135,2|2,0:0|0:0,0:0:0:0:
268,236,70332,1,8,0:0:0:0:
392,325,70527,1,0,0:0:0:0:
242,320,70721,6,0,B|243:288|252:259|269:234,1,90,2|0,0:0|0:0,0:0:0:0:
480,88,71111,2,0,L|420:220,1,135,8|0,0:0|0:0,0:0:0:0:
356,148,71501,2,0,B|319:128|277:132|246:155,1,90,2|2,0:0|0:0,0:0:0:0:
140,260,71890,1,8,0:0:0:0:
108,256,71987,1,0,0:0:0:0:
84,236,72084,1,2,0:0:0:0:
72,208,72182,1,0,0:0:0:0:
72,176,72280,6,0,B|112:136|172:130|217:157,1,135,2|0,0:0|0:0,0:0:0:0:
244,160,72669,2,0,B|275:166|306:159|330:144,1,90,8|0,0:0|0:0,0:0:0:0:
452,32,73059,1,2,0:0:0:0:
342,218,73254,1,2,0:0:0:0:
343,31,73449,1,8,0:0:0:0:
505,126,73643,1,2,0:0:0:0:
288,125,73838,1,2,0:0:0:0:
452,32,74033,1,2,0:0:0:0:
451,218,74228,1,8,0:0:0:0:
184,216,74423,6,0,B|214:206|245:210|269:225,1,90,2|8,0:0|0:0,0:0:0:0:
222,321,74812,1,2,0:0:0:0:
80,156,75007,2,0,B|77:114|105:78|143:68,1,90,0|8,0:0|0:0,0:0:0:0:
160,64,75299,1,2,0:0:0:0:
204,60,75397,6,0,L|240:152,1,90,6|0,0:0|0:0,0:0:0:0:
272,276,75786,1,0,0:0:0:0:
456,150,75980,1,2,0:0:0:0:
408,249,76177,2,0,B|379:234|360:208|351:180,1,90,8|8,0:0|0:0,0:0:0:0:
378,75,76566,1,0,0:0:0:0:
311,264,76760,1,2,0:0:0:0:
352,380,76955,6,0,B|384:369|408:345|420:316,1,90,2|2,0:0|0:0,0:0:0:0:
464,116,77345,1,2,0:0:0:0:
276,216,77540,1,0,0:0:0:0:
288,52,77734,2,0,B|188:36,1,90,8|0,0:0|0:0,0:0:0:0:
297,147,78124,2,0,B|346:140|381:99|384:53,1,135,0|8,0:0|0:0,0:0:0:0:
297,147,78514,6,0,B|332:166|350:201|351:238,1,90,6|0,0:0|0:0,0:0:0:0:
149,261,78903,2,0,B|176:243|208:240|236:248,1,90,0|2,0:0|0:0,0:0:0:0:
40,228,79293,2,0,B|73:187|71:131|41:93,1,135,8|0,0:0|0:0,0:0:0:0:
24,32,79682,1,0,0:0:0:0:
132,76,79877,2,0,B|164:73|190:57|208:34,1,90,2|0,0:0|0:0,0:0:0:0:
156,176,80267,5,2,0:0:0:0:
316,164,80462,2,0,B|316:129|305:97|287:71,1,90,2|0,0:0|0:0,0:0:0:0:
332,270,80851,2,0,B|369:266|398:244|413:213,1,90,8|0,0:0|0:0,0:0:0:0:
450,28,81241,2,0,B|416:30|387:50|372:78,1,90,8|0,0:0|0:0,0:0:0:0:
511,208,81630,6,0,B|508:174|488:145|460:130,1,90,12|0,0:0|0:0,0:0:0:0:
271,89,82020,2,0,B|273:123|293:151|321:166,1,90,8|0,0:0|0:0,0:0:0:0:
484,248,82410,5,8,0:0:0:0:
352,336,82604,1,8,0:0:0:0:
272,192,82799,1,8,0:0:0:0:
152,312,82994,1,8,0:0:0:0:
88,224,83189,6,0,B|138:207|165:154|152:105,1,135,0|0,0:0|0:0,0:0:0:0:
152,40,83579,1,4,0:0:0:0:
154,118,83968,6,0,B|202:128|250:119|289:96,1,135,0|0,0:0|0:0,0:0:0:0:
352,56,84358,1,0,0:0:0:0:
480,124,84553,1,0,0:0:0:0:
364,316,84747,5,4,0:0:0:0:
148,320,84942,1,0,0:0:0:0:
148,320,85040,1,0,0:0:0:0:
148,320,85136,1,8,0:0:0:0:
256,308,85332,2,0,B|253:276|236:249|212:232,1,90,4|0,0:0|0:0,0:0:0:0:
16,132,85721,1,8,0:0:0:0:
200,108,85916,2,0,B|252:108|294:144,1,90,0|0,0:0|0:0,0:0:0:0:
428,248,86306,5,4,0:0:0:0:
208,324,86500,1,0,0:0:0:0:
208,324,86695,1,8,0:0:0:0:
237,161,86890,2,0,B|222:128|196:105|165:93,1,90,4|0,0:0|0:0,0:0:0:0:
8,164,87280,1,2,0:0:0:0:
208,324,87475,1,4,0:0:0:0:
256,192,87572,12,0,89423,0:0:0:0:
